<?xml version="1.0" encoding="UTF-8" standalone="no"?>
<!-- Creator: CorelDRAW -->

<svg
   xml:space="preserve"
   width="56.030396mm"
   height="66.786003mm"
   version="1.1"
   style="clip-rule:evenodd;fill-rule:evenodd;image-rendering:optimizeQuality;shape-rendering:geometricPrecision;text-rendering:geometricPrecision"
   viewBox="0 0 5603.0396 6678.6003"
   id="svg216"
   sodipodi:docname="Ikony wersja 1 z aktywnymi krzywe.svg"
   inkscape:version="1.3.2 (091e20e, 2023-11-25, custom)"
   inkscape:export-filename="..\..\..\wilczewskiw\Pulpit\ikony-calosc\ikony\demografia.svg"
   inkscape:export-xdpi="96"
   inkscape:export-ydpi="96"
   xmlns:inkscape="http://www.inkscape.org/namespaces/inkscape"
   xmlns:sodipodi="http://sodipodi.sourceforge.net/DTD/sodipodi-0.dtd"
   xmlns="http://www.w3.org/2000/svg"
   xmlns:svg="http://www.w3.org/2000/svg"><sodipodi:namedview
   id="namedview216"
   pagecolor="#9d9d9d"
   bordercolor="#000000"
   borderopacity="0.25"
   inkscape:showpageshadow="2"
   inkscape:pageopacity="0.0"
   inkscape:pagecheckerboard="0"
   inkscape:deskcolor="#d1d1d1"
   inkscape:document-units="mm"
   inkscape:zoom="0.64264958"
   inkscape:cx="784.25322"
   inkscape:cy="613.86487"
   inkscape:window-width="1920"
   inkscape:window-height="1009"
   inkscape:window-x="-8"
   inkscape:window-y="-8"
   inkscape:window-maximized="1"
   inkscape:current-layer="Warstwa_x0020_1" />
 <defs
   id="defs55"><font
     id="FontID1"
     horiz-adv-x="573"
     font-variant="normal"
     style="fill-rule:nonzero"
     font-style="normal"
     font-weight="400"
     horiz-origin-x="0"
     horiz-origin-y="0"
     vert-origin-x="512"
     vert-origin-y="768"
     vert-adv-y="1024">
	<font-face
   font-family="Fira Sans"
   id="font-face1">
		<font-face-src>
			<font-face-name
   name="Fira Sans" />
		</font-face-src>
	</font-face>
   <missing-glyph
   id="missing-glyph1"><path
     d="M0 0z"
     id="path1" /></missing-glyph>
   <glyph
   unicode="B"
   horiz-adv-x="608"
   d="M404 364c47.3386,-8 85.6693,-24.6614 115.008,-50 29.3228,-25.3386 44,-64.6614 44,-118 0,-130.661 -91.0079,-196 -273.008,-196l-190 0 0 689.008 163.008 0c87.3228,0 154.157,-14.3465 200.488,-43.0079 46.3307,-28.6614 69.5118,-72.3307 69.5118,-130.992 0,-40 -12.5039,-73.3386 -37.5118,-100 -24.9921,-26.6772 -55.4961,-43.6693 -91.4961,-51.0079zm-208.992 250l0 -216.992 104 0c40,0 72.8189,9.65354 98.4882,28.9921 25.6693,19.3386 38.5039,46.6614 38.5039,82 0,40 -13.4961,67.6693 -40.5039,83.0079 -26.9921,15.3228 -67.8268,22.9921 -122.488,22.9921l-78 0zm94.9921 -538c56,0 98.8346,8.33071 128.504,25.0079 29.6693,16.6614 44.5039,48.3307 44.5039,94.9921 0,45.3386 -14.3465,78 -43.0079,98 -28.6614,20 -66,30 -112,30l-112.992 0 0 -248 94.9921 0z"
   id="glyph1" />
   <glyph
   unicode="D"
   horiz-adv-x="644"
   d="M244 689.008c104,0 187.496,-24.1732 250.504,-72.5039 62.9921,-48.3307 94.5039,-137.843 94.5039,-268.504 0,-127.339 -31.5118,-217.165 -94.5039,-269.496 -63.0079,-52.3307 -139.496,-78.5039 -229.496,-78.5039l-165.008 0 0 689.008 144 0zm-48.9921 -76l0 -538 76.9921 0c64,0 116,19.6535 156,58.9921 40,39.3386 60,110.661 60,214 0,72.6614 -10.3307,128.504 -30.9921,167.496 -20.6772,39.0079 -47.0079,65.0079 -79.0079,78 -32,13.0079 -69.6693,19.5118 -112.992,19.5118l-70 0z"
   id="glyph2" />
   <glyph
   unicode="K"
   horiz-adv-x="589"
   d="M195.008 0l-95.0079 0 0 689.008 95.0079 0 0 -689.008zm114 374l280 -374 -117.008 0 -272 368 262 321.008 108 0 -260.992 -315.008z"
   id="glyph3" />
   <glyph
   unicode="N"
   horiz-adv-x="683"
   d="M583.008 0l-127.008 0 -280 585.008c4,-46 7.16535,-88.5039 9.49606,-127.512 2.33071,-38.9921 3.51181,-86.1575 3.51181,-141.496l0 -316 -89.0079 0 0 689.008 124 0 283.008 -586c-2,17.3228 -4.67717,47.6535 -8,90.9921 -3.33858,43.3386 -5.00787,83.0079 -5.00787,119.008l0 376 89.0079 0 0 -689.008z"
   id="glyph4" />
   <glyph
   unicode="P"
   horiz-adv-x="581"
   d="M281.008 689.008c85.3228,0 151.323,-17.8425 198,-53.5118 46.6614,-35.6693 70,-88.8346 70,-159.496 0,-75.3386 -24.3465,-131.339 -73.0079,-168 -48.6614,-36.6614 -113.339,-54.9921 -194,-54.9921l-86.9921 0 0 -253.008 -95.0079 0 0 689.008 181.008 0zm-3.00787 -361.008c55.3386,0 97.4961,10.6614 126.504,32 28.9921,21.3386 43.4961,59.6693 43.4961,115.008 0,49.3228 -14.5039,84.9921 -43.4961,106.992 -29.0079,22 -70.5039,33.0079 -124.504,33.0079l-84.9921 0 0 -287.008 82.9921 0z"
   id="glyph5" />
   <glyph
   unicode="R"
   horiz-adv-x="605"
   d="M302 292l-106.992 0 0 -292 -95.0079 0 0 689.008 181.008 0c86,0 151.165,-16.3465 195.496,-49.0079 44.3307,-32.6614 66.5039,-81.3386 66.5039,-146 0,-48 -12.3465,-86.9921 -37.0079,-116.992 -24.6614,-30 -62,-52.6772 -112,-68l186 -309.008 -112.992 0 -165.008 292zm-10.9921 73.0079c50,0 87.6535,10.1575 112.992,30.4882 25.3386,20.3307 38,53.1654 38,98.5039 0,42.6614 -12.8346,73.4961 -38.5039,92.5039 -25.6693,18.9921 -66.8346,28.5039 -123.496,28.5039l-84.9921 0 0 -250 96 0z"
   id="glyph6" />
   <glyph
   unicode="W"
   horiz-adv-x="826"
   d="M661.008 0l-122 0 -127.008 577.008 -128 -577.008 -118.992 0 -140 689.008 92.9921 0 111.008 -606 132.992 606 101.008 0 136 -606 114.992 606 87.0079 0 -140 -689.008z"
   id="glyph7" />
   <glyph
   unicode="a"
   horiz-adv-x="544"
   d="M450 123.008c0,-21.3386 3.66929,-37.1811 11.0079,-47.5118 7.32283,-10.3307 18.3307,-18.1575 32.9921,-23.4961l-20.9921 -64c-27.3386,3.33858 -49.3386,10.9921 -66,23.0079 -16.6772,12 -29.0079,30.6614 -37.0079,56 -35.3386,-52.6772 -87.6693,-79.0079 -156.992,-79.0079 -52,0 -93.0079,14.6614 -123.008,44 -30,29.3386 -44.9921,67.6693 -44.9921,115.008 0,56 20.1575,98.9921 60.4882,128.992 40.3307,30 97.5118,45.0079 171.512,45.0079l80.9921 0 0 38.9921c0,37.3386 -8.99213,64 -26.9921,80 -18,16 -45.6693,24 -83.0079,24 -38.6614,0 -86,-9.33858 -142,-28l-22.9921 67.0079c65.3228,24 126,36 182,36 62,0 108.331,-15.1811 138.992,-45.5118 30.6614,-30.3307 46,-73.4961 46,-129.496l0 -240.992zm-216 -66c52.6614,0 94,27.3228 124,82l0 120.992 -68.9921 0c-97.3386,0 -146,-36 -146,-108 0,-31.3386 7.65354,-54.9921 22.9921,-70.9921 15.3386,-16 38,-24 68,-24z"
   id="glyph8" />
   <glyph
   unicode="b"
   horiz-adv-x="594"
   d="M336 539.008c60,0 107.669,-24.1732 143.008,-72.5039 35.3228,-48.3307 52.9921,-115.843 52.9921,-202.504 0,-54.6614 -8.33071,-102.835 -24.9921,-144.504 -16.6772,-41.6693 -40.6772,-74 -72,-96.9921 -31.3386,-23.0079 -68,-34.5039 -110,-34.5039 -55.3386,0 -102,23.3386 -140,70l-9.00787 -58 -80.9921 0 0 739.008 92 10.9921 0 -288.992c38,52 87.6535,78 148.992,78zm-32.9921 -478c40.6614,0 72.4882,16.4882 95.4961,49.4961 22.9921,32.9921 34.5039,84.1575 34.5039,153.496 0,71.3386 -10.6772,122.835 -32,154.504 -21.3386,31.6693 -51.6693,47.4961 -91.0079,47.4961 -46.6614,0 -87.6693,-27.3386 -122.992,-82l0 -252c14,-22 31.1654,-39.3386 51.4961,-52 20.3307,-12.6614 41.8268,-18.9921 64.5039,-18.9921z"
   id="glyph9" />
   <glyph
   unicode="c"
   horiz-adv-x="478"
   d="M287.008 539.008c31.3228,0 60,-4.50394 86,-13.5118 26,-8.99213 50.9921,-23.4961 74.9921,-43.4961l-44 -58c-18.6614,13.3386 -36.8346,23.1654 -54.5039,29.4961 -17.6693,6.33071 -37.1654,9.51181 -58.4882,9.51181 -42.6772,0 -75.8425,-17.0079 -99.5118,-51.0079 -23.6693,-34 -35.4961,-84.3307 -35.4961,-150.992 0,-66.6772 11.6693,-115.843 35.0079,-147.512 23.3228,-31.6693 56.6614,-47.4961 100,-47.4961 20.6614,0 39.6535,3.16535 56.9921,9.49606 17.3386,6.33071 36.6614,16.5039 58,30.5039l42 -60c-48,-38.6614 -101.669,-58 -160.992,-58 -71.3386,0 -127.512,24 -168.504,72 -41.0079,48 -61.4961,114.331 -61.4961,199.008 0,56 9.32283,104.992 28,146.992 18.6614,42 45.1654,74.6614 79.4961,98 34.3307,23.3386 75.1654,35.0079 122.504,35.0079z"
   id="glyph10" />
   <glyph
   unicode="d"
   horiz-adv-x="598"
   d="M503.008 739.008l0 -739.008 -81.0079 0 -8.99213 73.0079c-17.3386,-26.6772 -39.0079,-47.5118 -65.0079,-62.5039 -26,-15.0079 -54.9921,-22.5039 -86.9921,-22.5039 -62.6772,0 -111.512,24.6614 -146.504,74 -35.0079,49.3386 -52.5039,115.669 -52.5039,199.008 0,54 8.33071,102 25.0079,144 16.6614,42 40.6614,74.8189 72,98.4882 31.3228,23.6693 68,35.5118 110,35.5118 54,0 101.323,-21.6693 142,-65.0079l0 276 92 -10.9921zm-222 -678c28,0 52,6.48819 72,19.4961 20,12.9921 39.3228,32.5039 58,58.5039l0 258c-17.3386,22.6614 -35.8425,39.8268 -55.5118,51.4961 -19.6693,11.6693 -41.8268,17.4961 -66.4882,17.4961 -40.6772,0 -72.1732,-16.9921 -94.5039,-50.9921 -22.3307,-34 -33.4961,-84.6772 -33.4961,-152 0,-68 10.3307,-118.677 30.9921,-152 20.6614,-33.3386 50.3307,-50 89.0079,-50z"
   id="glyph11" />
   <glyph
   unicode="e"
   horiz-adv-x="550"
   d="M493.008 279.008c0,-15.3386 -0.677165,-31.0079 -2,-47.0079l-336 0c4,-58 18.6614,-100.661 44,-128 25.3228,-27.3386 58,-40.9921 98,-40.9921 25.3228,0 48.6614,3.65354 70,10.9921 21.3228,7.33858 43.6535,19.0079 66.9921,35.0079l40 -55.0079c-56,-44 -117.339,-66 -184,-66 -73.3386,0 -130.504,24 -171.496,72 -41.0079,48 -61.4961,114 -61.4961,198 0,54.6614 8.8189,103.165 26.4882,145.496 17.6693,42.3307 43.0079,75.5118 76,99.5118 33.0079,24 71.8425,36 116.504,36 70,0 123.669,-23.0079 161.008,-69.0079 37.3228,-46 56,-109.669 56,-190.992zm-91.0079 26.9921c0,52 -10.3307,91.6693 -30.9921,119.008 -20.6772,27.3228 -51.6693,40.9921 -93.0079,40.9921 -75.3386,0 -116.331,-55.3386 -122.992,-166l246.992 0 0 6z"
   id="glyph12" />
   <glyph
   unicode="f"
   horiz-adv-x="335"
   d="M274 676c-28,0 -48,-6.17323 -60,-18.5039 -12,-12.3307 -18,-31.4961 -18,-57.4961l0 -72.9921 128 0 -10 -71.0079 -118 0 0 -456 -92 0 0 456 -94 0 0 71.0079 94 0 0 72c0,45.3228 14.5039,81.8268 43.4961,109.496 29.0079,27.6693 69.5118,41.4961 121.512,41.4961 24,0 45.4961,-2.17323 64.4882,-6.50394 19.0079,-4.33071 39.5118,-11.1654 61.5118,-20.4882l-29.0079 -67.0079c-30,13.3386 -60.6614,20 -92,20z"
   id="glyph13" />
   <glyph
   unicode="g"
   horiz-adv-x="520"
   d="M520 503.008c-20,-6.67717 -42,-11.0079 -66,-13.0079 -24,-2 -53.3386,-2.99213 -88,-2.99213 62,-28 93.0079,-72.3465 93.0079,-133.008 0,-52.6614 -18,-95.6693 -54,-128.992 -36,-33.3386 -85.0079,-50 -147.008,-50 -24,0 -46.3307,3.32283 -66.9921,10 -8,-5.33858 -14.3465,-12.5039 -19.0079,-21.5118 -4.66142,-8.99213 -6.99213,-18.1575 -6.99213,-27.4961 0,-28.6614 22.9921,-42.9921 68.9921,-42.9921l84 0c35.3386,0 66.6614,-6.34646 94,-19.0079 27.3386,-12.6614 48.5039,-30 63.4961,-52 15.0079,-22 22.5039,-47.0079 22.5039,-75.0079 0,-51.3228 -20.9921,-90.8189 -62.9921,-118.488 -42,-27.6693 -103.339,-41.5118 -184,-41.5118 -56.6772,0 -101.512,5.84252 -134.504,17.5118 -33.0079,11.6693 -56.5039,29.1654 -70.5039,52.4882 -14,23.3386 -20.9921,53.3386 -20.9921,90l82.9921 0c0,-21.3228 4,-38.1575 12,-50.4882 8,-12.3307 22.3307,-21.6693 43.0079,-28 20.6614,-6.33071 50,-9.51181 88,-9.51181 55.3228,0 94.8189,6.83465 118.488,20.5039 23.6693,13.6693 35.5118,34.1732 35.5118,61.4961 0,24.6772 -9.33858,43.3386 -28,56 -18.6772,12.6772 -44.6772,19.0079 -78,19.0079l-83.0079 0c-44.6614,0 -78.5039,9.49606 -101.496,28.5039 -23.0079,18.9921 -34.5039,42.8346 -34.5039,71.4961 0,17.3386 5.00787,34 15.0079,50 10,16 24.3307,30.3307 42.9921,43.0079 -30.6614,16 -53.1654,35.8268 -67.4961,59.4961 -14.3307,23.6693 -21.4961,52.5039 -21.4961,86.5039 0,35.3228 8.8189,66.9921 26.4882,94.9921 17.6693,28 42,49.8268 73.0079,65.4961 30.9921,15.6693 65.4961,23.5118 103.496,23.5118 41.3386,-0.677165 76,0.818898 104,4.48819 28,3.66929 51.1654,8.67717 69.4961,15.0079 18.3307,6.33071 40.8346,15.4961 67.5118,27.4961l26.9921 -82.9921zm-268 -30c-34.6614,0 -61.4961,-10.8346 -80.5039,-32.5039 -18.9921,-21.6693 -28.4882,-50.1732 -28.4882,-85.4961 0,-36 9.65354,-64.8346 28.9921,-86.5039 19.3386,-21.6693 46.6614,-32.5039 82,-32.5039 36,0 63.4961,10.5039 82.5039,31.4961 18.9921,21.0079 28.5039,50.5039 28.5039,88.5039 0,78 -37.6693,117.008 -113.008,117.008z"
   id="glyph14" />
   <glyph
   unicode="i"
   horiz-adv-x="282"
   d="M187.008 0l-92 0 0 527.008 92 0 0 -527.008zm-47.0079 780c19.3386,0 35.0079,-6 47.0079,-18 12,-12 18,-26.9921 18,-44.9921 0,-18 -6,-32.8346 -18,-44.5039 -12,-11.6693 -27.6693,-17.4961 -47.0079,-17.4961 -18.6614,0 -34,5.82677 -46,17.4961 -12,11.6693 -18,26.5039 -18,44.5039 0,18 6,32.9921 18,44.9921 12,12 27.3386,18 46,18z"
   id="glyph15" />
   <glyph
   unicode="j"
   horiz-adv-x="280"
   d="M185.008 32c0,-48.6614 -6,-87.6693 -18,-117.008 -12,-29.3228 -29.5118,-53.1654 -52.5039,-71.4961 -23.0079,-18.3307 -55.1654,-36.8346 -96.5039,-55.4961l-27.0079 66.9921c26.0157,12 46.0157,23.8425 60.0157,35.5118 14,11.6693 24.4882,28 31.4961,48.9921 6.99213,21.0079 10.5039,49.8425 10.5039,86.5039l0 501.008 92 0 0 -495.008zm-46 748c19.3228,0 34.9921,-6 46.9921,-18 12,-12 18,-26.9921 18,-44.9921 0,-18 -6,-32.8346 -18,-44.5039 -12,-11.6693 -27.6693,-17.4961 -46.9921,-17.4961 -18.6772,0 -34,5.82677 -46,17.4961 -12,11.6693 -18,26.5039 -18,44.5039 0,18 6,32.9921 18,44.9921 12,12 27.3228,18 46,18z"
   id="glyph16" />
   <glyph
   unicode="k"
   horiz-adv-x="512"
   d="M187.008 0l-92 0 0 739.008 92 10.9921 0 -750zm108.992 294l216 -294 -110 0 -208.992 288 194 239.008 102.992 0 -194 -233.008z"
   id="glyph17" />
   <glyph
   unicode="l"
   horiz-adv-x="293"
   d="M200 -12c-34,0 -60.8346,10.1732 -80.5039,30.5039 -19.6693,20.3307 -29.4961,48.8346 -29.4961,85.4961l0 635.008 92 10.9921 0 -644c0,-14.6614 2.50394,-25.3386 7.49606,-32 5.00787,-6.66142 13.5118,-10 25.5118,-10 12.6614,0 24,2 34,6l24 -64c-22,-12 -46.3465,-18 -73.0079,-18z"
   id="glyph18" />
   <glyph
   unicode="m"
   horiz-adv-x="857"
   d="M624 539.008c43.3386,0 78,-14.5039 104,-43.5118 26,-28.9921 39.0079,-68.1575 39.0079,-117.496l0 -378 -92 0 0 365.008c0,68 -24.6772,102 -74,102 -26,0 -48,-7.51181 -66,-22.5039 -18,-15.0079 -37.3386,-38.5039 -58,-70.5039l0 -374 -92 0 0 365.008c0,68 -24.6772,102 -74,102 -26.6772,0 -49.0079,-7.66929 -67.0079,-23.0079 -18,-15.3386 -36.9921,-38.6614 -56.9921,-70l0 -374 -92 0 0 527.008 78.9921 0 8 -77.0079c39.3386,59.3386 90,89.0079 152,89.0079 32.6614,0 60.5039,-8.34646 83.4961,-25.0079 23.0079,-16.6614 39.5118,-40 49.5118,-70 20.6614,30.6614 43.4961,54.1732 68.4882,70.5039 25.0079,16.3307 54.5039,24.5039 88.5039,24.5039z"
   id="glyph19" />
   <glyph
   unicode="n"
   horiz-adv-x="586"
   d="M343.008 539.008c48,0 85.4961,-14.3465 112.488,-43.0079 27.0079,-28.6614 40.5039,-68 40.5039,-118l0 -378 -92 0 0 365.008c0,37.3228 -6.99213,63.6535 -20.9921,78.9921 -14,15.3386 -34.6772,23.0079 -62,23.0079 -28,0 -52.6772,-8 -74,-24 -21.3386,-16 -41.3386,-39.0079 -60,-69.0079l0 -374 -92 0 0 527.008 78.9921 0 8 -78c18.6614,28 41.8268,50 69.4961,66 27.6693,16 58.1732,24 91.5118,24z"
   id="glyph20" />
   <glyph
   unicode="o"
   horiz-adv-x="584"
   d="M293.008 539.008c74,0 131.496,-24.6772 172.488,-74 41.0079,-49.3386 61.5118,-116.346 61.5118,-201.008 0,-54.6614 -9.33858,-102.835 -28,-144.504 -18.6772,-41.6693 -45.6693,-74 -81.0079,-96.9921 -35.3386,-23.0079 -77.3386,-34.5039 -126,-34.5039 -74,0 -131.669,24.6614 -172.992,74 -41.3386,49.3386 -62,116.331 -62,201.008 0,54.6614 9.32283,102.819 28,144.488 18.6614,41.6693 45.6535,74 80.9921,97.0079 35.3386,22.9921 77.6693,34.5039 127.008,34.5039zm0 -74c-91.3386,0 -137.008,-67.3386 -137.008,-202 0,-134 45.3386,-201.008 136,-201.008 90.6614,0 136,67.3386 136,202 0,134 -44.9921,201.008 -134.992,201.008z"
   id="glyph21" />
   <glyph
   unicode="p"
   horiz-adv-x="594"
   d="M337.008 539.008c67.3228,0 116.661,-24 148,-72 31.3228,-48 46.9921,-115.669 46.9921,-203.008 0,-82.6614 -18,-149.339 -54,-200 -36,-50.6614 -86.9921,-76 -152.992,-76 -58.6772,0 -104.677,20 -138,60l0 -250 -92 -11.0079 0 740.016 78.9921 0 7.00787 -71.0079c19.3228,26.6614 42.6614,47.1654 70,61.4961 27.3228,14.3307 56,21.5118 86,21.5118zm-34 -476c86.6614,0 130,66.9921 130,200.992 0,134.661 -39.6693,202 -119.008,202 -26,0 -49.6693,-7.66929 -70.9921,-22.9921 -21.3386,-15.3386 -40,-35.0079 -56,-59.0079l0 -256.992c13.3228,-20.6772 30,-36.5039 50,-47.5118 20,-10.9921 42,-16.4882 66,-16.4882z"
   id="glyph22" />
   <glyph
   unicode="r"
   horiz-adv-x="386"
   d="M324 539.008c18.6614,0 36,-2 52,-6l-16.9921 -90c-16,4 -31.3386,6 -46,6 -32.6772,0 -59.0079,-12 -79.0079,-36 -20,-24 -35.6693,-61.3386 -46.9921,-112l0 -301.008 -92 0 0 527.008 78.9921 0 9.00787 -107.008c14,39.3386 32.9921,69.0079 56.9921,89.0079 24,20 52,30 84,30z"
   id="glyph23" />
   <glyph
   unicode="s"
   horiz-adv-x="467"
   d="M238 539.008c36,0 68.3307,-5.00787 97.0079,-15.0079 28.6614,-10 56,-24.9921 82,-44.9921l-39.0079 -58c-24,15.3228 -46.8346,26.6614 -68.5039,34 -21.6693,7.32283 -44.4882,10.9921 -68.4882,10.9921 -30,0 -53.6693,-6.17323 -71.0079,-18.5039 -17.3386,-12.3307 -26,-29.1654 -26,-50.4882 0,-21.3386 8.17323,-38 24.5039,-50 16.3307,-12 45.8268,-23.6693 88.5039,-35.0079 58.6614,-14.6614 102.488,-34.6614 131.496,-60 28.9921,-25.3386 43.4961,-60 43.4961,-104 0,-52 -20.1732,-91.6693 -60.5039,-118.992 -40.3307,-27.3386 -89.4961,-41.0079 -147.496,-41.0079 -80,0 -146.331,23.0079 -198.992,69.0079l48.9921 56c44.6614,-34 94,-51.0079 148,-51.0079 34.6614,0 62.1732,7.16535 82.5039,21.4961 20.3307,14.3307 30.5039,33.8425 30.5039,58.5039 0,18 -3.66929,32.5039 -11.0079,43.4961 -7.33858,11.0079 -20,20.6772 -38,29.0079 -18,8.33071 -44.3307,17.1654 -78.9921,26.5039 -56,14.6614 -96.5039,34.3307 -121.512,58.9921 -24.9921,24.6614 -37.4961,56 -37.4961,94 0,27.3386 8.17323,52.1732 24.5039,74.5039 16.3307,22.3307 38.9921,39.6693 68,52 28.9921,12.3307 61.4961,18.5039 97.4961,18.5039z"
   id="glyph24" />
   <glyph
   unicode="t"
   horiz-adv-x="361"
   d="M361.008 24c-34.6772,-24 -74,-36 -118,-36 -44.6772,0 -79.5118,12.8346 -104.504,38.5039 -25.0079,25.6693 -37.4961,62.8346 -37.4961,111.496l0 318 -92 0 0 71.0079 92 0 0 118.992 92 11.0079 0 -130 124.992 0 -10 -71.0079 -114.992 0 0 -314c0,-27.3386 4.8189,-47.1654 14.4882,-59.4961 9.66929,-12.3307 25.8425,-18.5039 48.5039,-18.5039 22,0 45.3386,7.66929 70,23.0079l35.0079 -63.0079z"
   id="glyph25" />
   <glyph
   unicode="u"
   horiz-adv-x="582"
   d="M487.008 0l-79.0079 0 -6.99213 82c-20,-32.6614 -43.0079,-56.5039 -69.0079,-71.4961 -26,-15.0079 -57.6693,-22.5039 -94.9921,-22.5039 -46,0 -82,14 -108,42 -26,28 -39.0079,67.6693 -39.0079,119.008l0 378 92 0 0 -368c0,-36 6.33071,-61.5118 19.0079,-76.5039 12.6614,-15.0079 33.3228,-22.5039 62,-22.5039 51.3228,0 95.3228,30.3307 132,91.0079l0 376 92 0 0 -527.008z"
   id="glyph26" />
   <glyph
   unicode="w"
   horiz-adv-x="717"
   d="M577.008 0l-125.008 0 -92 444 -94.9921 -444 -122 0 -123.008 527.008 92 0 95.0079 -463.008 104 463.008 102.992 0 99.0079 -463.008 96 463.008 88 0 -120 -527.008z"
   id="glyph27" />
   <glyph
   unicode="y"
   horiz-adv-x="492"
   d="M306 -3.00787c-20.6614,-61.3228 -49.4961,-109.827 -86.5039,-145.496 -36.9921,-35.6693 -89.8268,-57.1654 -158.488,-64.5039l-10 72c34.6614,6 62.3307,14.6772 82.9921,26 20.6614,11.3386 37.1654,25.8425 49.4961,43.5118 12.3307,17.6693 23.8425,41.4961 34.5039,71.4961l-30.9921 0 -177.008 527.008 98 0 141.008 -460 138 460 94.9921 0 -176 -530.016z"
   id="glyph28" />
   <glyph
   unicode="z"
   horiz-adv-x="437"
   d="M404 457.008l-274.992 -380 278 0 -11.0079 -77.0079 -370.992 0 0 69.0079 274 380 -251.008 0 0 78 356 0 0 -70z"
   id="glyph29" />
   <glyph
   unicode="ę"
   horiz-adv-x="550"
   d="M493.008 279.008c0,-15.3386 -0.677165,-31.0079 -2,-47.0079l-336 0c4,-58 18.6614,-100.661 44,-128 25.3228,-27.3386 58,-40.9921 98,-40.9921 25.3228,0 48.6614,3.65354 70,10.9921 21.3228,7.33858 43.6535,19.0079 66.9921,35.0079l40 -55.0079c-29.3386,-23.3386 -60.3307,-40.6614 -92.9921,-52 -44,-19.3386 -74.1732,-37.6693 -90.5039,-55.0079 -16.3307,-17.3228 -24.5039,-35.6535 -24.5039,-54.9921 0,-32 18.6614,-48 56,-48 18,0 38.3307,2.33071 61.0079,6.99213l-9.00787 -70c-23.3386,-4.66142 -44.3307,-6.99213 -62.9921,-6.99213 -38,0 -68.3465,9.49606 -91.0079,28.5039 -22.6614,18.9921 -34,43.1654 -34,72.4882 0,48 27.6693,86 83.0079,114 -66.6772,4.67717 -118.677,30.6772 -156,78.0157 -37.3386,47.3228 -56,110.992 -56,190.992 0,54.6614 8.8189,103.165 26.4882,145.496 17.6693,42.3307 43.0079,75.5118 76,99.5118 33.0079,24 71.8425,36 116.504,36 70,0 123.669,-23.0079 161.008,-69.0079 37.3228,-46 56,-109.669 56,-190.992zm-91.0079 26.9921c0,52 -10.3307,91.6693 -30.9921,119.008 -20.6772,27.3228 -51.6693,40.9921 -93.0079,40.9921 -75.3386,0 -116.331,-55.3386 -122.992,-166l246.992 0 0 6z"
   id="glyph30" />
   <glyph
   unicode="ł"
   horiz-adv-x="312"
   d="M221.008 64c12.6614,0 24,2 34,6l24 -64c-22,-12 -46.3465,-18 -73.0079,-18 -34,0 -60.8346,10.1732 -80.5039,30.5039 -19.6693,20.3307 -29.4961,48.8346 -29.4961,85.4961l0 196 -50.9921 -30.9921 -35.0079 58.9921 86 54 0 357.008 92 10.9921 0 -312.992 91.0079 54.9921 32.9921 -60 -124 -76 0 -250c0,-14.6614 2.50394,-25.3386 7.49606,-32 5.00787,-6.66142 13.5118,-10 25.5118,-10z"
   id="glyph31" />
  </font><font
     id="FontID0"
     horiz-adv-x="583"
     font-variant="normal"
     style="fill-rule:nonzero"
     font-style="normal"
     font-weight="500"
     horiz-origin-x="0"
     horiz-origin-y="0"
     vert-origin-x="512"
     vert-origin-y="768"
     vert-adv-y="1024">
	<font-face
   font-family="Fira Sans Medium"
   id="font-face31">
		<font-face-src>
			<font-face-name
   name="Fira Sans Medium" />
		</font-face-src>
	</font-face>
   <missing-glyph
   id="missing-glyph31"><path
     d="M0 0z"
     id="path31" /></missing-glyph>
   <glyph
   unicode="C"
   horiz-adv-x="568"
   d="M343.008 706c43.3228,0 80.8189,-6 112.488,-18 31.6693,-12 62.1732,-30.3307 91.5118,-54.9921l-68 -79.0079c-39.3386,33.3386 -82,50 -128,50 -51.3386,0 -92.3465,-20.6614 -123.008,-62 -30.6614,-41.3386 -46,-106.331 -46,-194.992 0,-87.3386 15.3386,-151.843 46,-193.512 30.6614,-41.6693 72.3307,-62.4882 125.008,-62.4882 26.6614,0 50.3307,4.99213 70.9921,14.9921 20.6614,10 43.6693,24.3307 69.0079,43.0079l62 -80c-23.3386,-24 -52.8346,-44 -88.5039,-60 -35.6693,-16.0157 -75.4961,-24.0157 -119.496,-24.0157 -60,0 -113.008,14 -159.008,42.0157 -46,28 -81.6693,69.1654 -106.992,123.496 -25.3386,54.3307 -38,119.827 -38,196.504 0,75.3228 13.1654,140 39.4961,194 26.3307,54 62.1575,94.9921 107.496,122.992 45.3386,28 96.3307,42 153.008,42z"
   id="glyph32" />
   <glyph
   unicode="W"
   horiz-adv-x="837"
   d="M694 0l-172 0 -104.992 551.008 -108 -551.008 -167.008 0 -124.992 691.008 130.992 0 88 -586 113.008 586 140 0 110.992 -586 96 586 125.008 0 -127.008 -691.008z"
   id="glyph33" />
   <glyph
   unicode="a"
   horiz-adv-x="546"
   d="M468 140c0,-20.6614 3.16535,-35.8268 9.49606,-45.4961 6.33071,-9.66929 16.5039,-17.1654 30.5039,-22.5039l-26.9921 -85.0079c-30,2.67717 -54.5039,9.84252 -73.5118,21.5118 -18.9921,11.6693 -33.4961,30.1575 -43.4961,55.4961 -18,-26.6614 -40.5039,-46.5039 -67.4961,-59.4961 -27.0079,-13.0079 -57.1654,-19.5118 -90.5039,-19.5118 -52.6614,0 -94.3307,15.0079 -124.992,45.0079 -30.6772,30 -46,69.3386 -46,118 0,57.3386 20.8189,101.165 62.4882,131.496 41.6693,30.3307 101.165,45.5118 178.504,45.5118l66 0 0 30c0,34 -7.82677,57.8268 -23.4961,71.4961 -15.6693,13.6693 -40.8346,20.5039 -75.4961,20.5039 -38.6772,0 -85.3386,-9.33858 -140,-28l-30 86.9921c66,25.3386 130,38 192,38 135.323,0 202.992,-60.6614 202.992,-182l0 -222zm-228 -62c43.3386,0 77.3386,21.6693 102,65.0079l0 106.992 -52.9921 0c-82.6772,0 -124,-30.6614 -124,-92 0,-25.3386 6.33071,-44.9921 18.9921,-58.9921 12.6614,-14 31.3386,-21.0079 56,-21.0079z"
   id="glyph34" />
   <glyph
   unicode="c"
   horiz-adv-x="478"
   d="M290 544c34.6614,0 65.8268,-4.99213 93.4961,-14.9921 27.6693,-10 53.8425,-25.6693 78.5039,-47.0079l-56.9921 -76.9921c-18,13.3228 -35.3386,22.9921 -52,28.9921 -16.6772,6 -35.0079,9.00787 -55.0079,9.00787 -79.3386,0 -118.992,-60.3465 -118.992,-181.008 0,-61.3386 10.3307,-105.496 30.9921,-132.504 20.6614,-26.9921 50,-40.4882 88,-40.4882 18.6614,0 35.8268,2.99213 51.4961,8.99213 15.6693,6 34.1732,15.6693 55.5118,29.0079l56.9921 -81.0079c-50,-40.6614 -106.992,-61.0079 -170.992,-61.0079 -50.6772,0 -94.6772,11.1811 -132,33.5118 -37.3386,22.3307 -66,54.1575 -86,95.4961 -20,41.3386 -30,90 -30,146 0,56 10,105.496 30,148.504 20,42.9921 48.6614,76.3307 86,100 37.3228,23.6693 80.9921,35.4961 130.992,35.4961z"
   id="glyph35" />
   <glyph
   unicode="d"
   horiz-adv-x="599"
   d="M522 741.008l0 -741.008 -112.992 0 -9.00787 67.0079c-16.6614,-25.3386 -37.6693,-45.3386 -62.9921,-60 -25.3386,-14.6772 -54.6772,-22.0157 -88,-22.0157 -64.6772,0 -114.346,25.0079 -149.008,75.0079 -34.6614,50 -52,118 -52,204 0,54.6614 8.66142,103.165 26,145.496 17.3386,42.3307 42.1732,75.3386 74.5039,99.0079 32.3307,23.6693 70.5039,35.4961 114.504,35.4961 50.6614,0 94.3307,-18.9921 130.992,-56.9921l0 268 128 -14zm-236.992 -659.008c22.6614,0 42.6614,5.49606 60,16.5039 17.3228,10.9921 33.6535,28.1575 48.9921,51.4961l0 242c-14.6614,18.6614 -30,32.6614 -46,42 -16,9.33858 -34,14 -54,14 -34.6614,0 -61.8268,-15.1654 -81.4961,-45.4961 -19.6693,-30.3307 -29.4961,-76.1732 -29.4961,-137.496 0,-65.3386 8.66142,-112.173 26,-140.504 17.3228,-28.3307 42.6614,-42.5039 76,-42.5039z"
   id="glyph36" />
   <glyph
   unicode="e"
   horiz-adv-x="552"
   d="M511.008 277.008c0,-6.67717 -1.00787,-24 -3.00787,-52l-332 0c4.66142,-51.3386 18.1732,-88 40.5039,-110 22.3307,-22 52.1575,-33.0079 89.4961,-33.0079 23.3386,0 45.3386,3.82677 66,11.4961 20.6614,7.66929 42.6614,19.5118 66,35.5118l53.0079 -73.0079c-58.6772,-47.3386 -124,-71.0079 -196,-71.0079 -80.6772,0 -142.835,24.6772 -186.504,74.0157 -43.6693,49.3228 -65.4961,116.661 -65.4961,202 0,54 9.32283,102.488 28,145.496 18.6614,42.9921 45.6535,76.6614 80.9921,100.992 35.3386,24.3307 77.3386,36.5039 126,36.5039 74,0 131.339,-23.4961 172,-70.5039 40.6614,-46.9921 61.0079,-112.488 61.0079,-196.488zm-127.008 36.9921c0,92.6614 -34.3307,139.008 -102.992,139.008 -31.3386,0 -55.8425,-11.5118 -73.5118,-34.5039 -17.6693,-23.0079 -28.1575,-59.8425 -31.4961,-110.504l208 0 0 6z"
   id="glyph37" />
   <glyph
   unicode="g"
   horiz-adv-x="537"
   d="M537.008 501.008c-34,-12 -85.0079,-18 -153.008,-18 32.6614,-14.6772 56.8346,-32.8346 72.5039,-54.5039 15.6693,-21.6693 23.4961,-48.8346 23.4961,-81.4961 0,-34.6772 -8.50394,-65.3386 -25.4961,-92 -17.0079,-26.6772 -41.6693,-47.6693 -74,-63.0079 -32.3307,-15.3386 -70.1732,-22.9921 -113.496,-22.9921 -24,0 -45.0079,2.66142 -63.0079,8 -14.6614,-10 -22,-23.0079 -22,-39.0079 0,-24.6614 21.3386,-36.9921 64,-36.9921l81.0079 0c38.6614,0 72.4882,-6.34646 101.496,-19.0079 28.9921,-12.6614 51.4961,-30.5039 67.4961,-53.4961 16,-23.0079 24,-48.8346 24,-77.5118 0,-53.3228 -22.6614,-94.8189 -68,-124.488 -45.3386,-29.6693 -110.661,-44.5039 -196,-44.5039 -61.3386,0 -109.496,6.33071 -144.504,18.9921 -34.9921,12.6772 -59.8268,31.0079 -74.4882,55.0079 -14.6772,24 -22,54.6614 -22,92l114.992 0c0,-18.6614 3.49606,-33.3386 10.5039,-44 6.99213,-10.6614 19.6693,-18.6614 38,-24 18.3307,-5.33858 44.8346,-8 79.4961,-8 48.6614,0 83.0079,6 103.008,18 20,12 30,29.3386 30,52 0,20 -7.66929,35.4961 -23.0079,46.5039 -15.3386,10.9921 -37.6693,16.5039 -66.9921,16.5039l-80 0c-50,0 -87.6693,9.65354 -113.008,28.9921 -25.3386,19.3386 -38,43.6693 -38,73.0079 0,18.6614 5.49606,36.6614 16.5039,54 10.9921,17.3228 26.1575,32 45.4961,44 -32,16.6614 -55.4961,37.1654 -70.5039,61.4961 -14.9921,24.3307 -22.4882,53.4961 -22.4882,87.4961 0,38 9.32283,71.3386 28,100 18.6614,28.6614 44.4882,50.8346 77.4961,66.5039 32.9921,15.6693 70.8346,23.4961 113.496,23.4961 56,-1.33858 101.165,2.83465 135.496,12.5039 34.3307,9.66929 71.5118,25.1654 111.512,46.5039l32 -102zm-277.008 -44c-28.6614,0 -51.1654,-9.1811 -67.4961,-27.5118 -16.3307,-18.3307 -24.5039,-42.8346 -24.5039,-73.4961 0,-32 8.33071,-57.3386 25.0079,-76 16.6614,-18.6614 39.6535,-28 68.9921,-28 30.6614,0 54,9.16535 70,27.4961 16,18.3307 24,44.1732 24,77.5118 0,66.6614 -32,100 -96,100z"
   id="glyph38" />
   <glyph
   unicode="i"
   horiz-adv-x="282"
   d="M205.008 0l-128 0 0 529.008 128 0 0 -529.008zm-65.0079 797.008c24,0 43.4961,-7.51181 58.5039,-22.5039 14.9921,-15.0079 22.5039,-33.4961 22.5039,-55.4961 0,-22 -7.51181,-40.3465 -22.5039,-55.0079 -15.0079,-14.6614 -34.5039,-22 -58.5039,-22 -23.3386,0 -42.5039,7.33858 -57.4961,22 -15.0079,14.6614 -22.5039,33.0079 -22.5039,55.0079 0,22 7.49606,40.4882 22.5039,55.4961 14.9921,14.9921 34.1575,22.5039 57.4961,22.5039z"
   id="glyph39" />
   <glyph
   unicode="l"
   horiz-adv-x="295"
   d="M202 -15.0079c-40.6614,0 -72.5039,11.8425 -95.4961,35.5118 -23.0079,23.6693 -34.5039,57.1654 -34.5039,100.504l0 620 128 14 0 -630c0,-24.6772 10,-37.0079 30,-37.0079 10,0 20,1.66929 30,5.00787l27.0079 -90c-26.6772,-12.0157 -55.0079,-18.0157 -85.0079,-18.0157z"
   id="glyph40" />
   <glyph
   unicode="n"
   horiz-adv-x="581"
   d="M359.008 544c47.3228,0 84.1575,-14.1732 110.488,-42.5039 26.3307,-28.3307 39.5118,-67.8268 39.5118,-118.488l0 -383.008 -128 0 0 363.008c0,31.3228 -5.51181,53.3228 -16.5039,66 -11.0079,12.6614 -27.1654,18.9921 -48.5039,18.9921 -22,0 -41.8268,-6.83465 -59.4961,-20.5039 -17.6693,-13.6693 -34.8346,-33.4961 -51.4961,-59.4961l0 -368 -128 0 0 529.008 110.992 0 10 -70c44,56.6614 97.6693,84.9921 161.008,84.9921z"
   id="glyph41" />
   <glyph
   unicode="o"
   horiz-adv-x="584"
   d="M293.008 544c78,0 138.819,-24.8346 182.488,-74.5039 43.6693,-49.6693 65.5118,-117.827 65.5118,-204.488 0,-55.3386 -10,-104.173 -30,-146.504 -20,-42.3307 -48.6772,-75.1654 -86,-98.5039 -37.3386,-23.3386 -81.6693,-35.0079 -133.008,-35.0079 -78,0 -138.992,24.8346 -182.992,74.5039 -44,49.6693 -66,118.173 -66,205.512 0,55.3228 10,104 30,146 20,42 48.8189,74.6614 86.4882,98 37.6693,23.3228 82.1732,34.9921 133.512,34.9921zm0 -96.9921c-76.6772,0 -115.008,-60.6772 -115.008,-182 0,-62.6772 9.49606,-108.835 28.5039,-138.504 18.9921,-29.6693 47.4961,-44.5039 85.4961,-44.5039 38,0 66.5039,15.0079 85.4961,45.0079 19.0079,30 28.5039,76 28.5039,138 0,62 -9.49606,107.827 -28.5039,137.496 -18.9921,29.6693 -47.1654,44.5039 -84.4882,44.5039z"
   id="glyph42" />
   <glyph
   unicode="r"
   horiz-adv-x="394"
   d="M338 543.008c19.3386,0 37.0079,-2.34646 53.0079,-7.00787l-22 -124c-16,4 -31.6693,6 -47.0079,6 -31.3386,0 -56,-11.1654 -74,-33.4961 -18,-22.3307 -32.3307,-56.8346 -42.9921,-103.496l0 -281.008 -128 0 0 529.008 110.992 0 12 -104c12.6614,38 31.0079,67.1654 55.0079,87.4961 24,20.3307 51.6535,30.5039 82.9921,30.5039z"
   id="glyph43" />
   <glyph
   unicode="t"
   horiz-adv-x="375"
   d="M380 25.0079c-18.6614,-13.3386 -39.4961,-23.3386 -62.5039,-30.0157 -22.9921,-6.66142 -46.4882,-10 -70.4882,-10 -52,0.677165 -91.5118,15.5118 -118.504,44.5039 -27.0079,29.0079 -40.5039,71.8425 -40.5039,128.504l0 279.008 -82.9921 0 0 92 82.9921 0 0 116.992 128 15.0079 0 -132 123.008 0 -13.0079 -92 -110 0 0 -276c0,-26 4.50394,-44.6772 13.4961,-56 9.00787,-11.3386 23.1654,-17.0079 42.5039,-17.0079 20,0 41.0079,6.66142 63.0079,20l44.9921 -82.9921z"
   id="glyph44" />
   <glyph
   unicode="y"
   horiz-adv-x="506"
   d="M333.008 -2c-21.3386,-65.3386 -53.6693,-116.173 -97.0079,-152.504 -43.3386,-36.3307 -102.661,-57.4961 -178,-63.4961l-12.9921 92.9921c34.6614,5.33858 62.4882,12.8346 83.4961,22.5039 20.9921,9.66929 37.8268,22.5039 50.5039,38.5039 12.6614,16 24.3307,37.3386 34.9921,64l-44 0 -168 529.008 136 0 115.008 -444 120 444 132 0 -172 -531.008z"
   id="glyph45" />
   <glyph
   unicode="z"
   horiz-adv-x="449"
   d="M421.008 437.008l-256 -337.008 260.992 0 -12.9921 -100 -395.008 0 0 92 257.008 337.008 -235.008 0 0 100 381.008 0 0 -92z"
   id="glyph46" />
  </font>
</defs>
</svg>
